187146

Apple iPad – Allgemeines • iPad Video 720p .mp4 / apple TV

Hallo zusammen,

ich besitze ein apple TV und ein iPad. Jetzt möchte ich meine mit einer HD-Cam gedrehten Videos für beide Geräte zugänglich machen und möglichst wenig an Qualität einbüßen. Das Format meiner Wahl wäre H.264, 720p als .mp4 (was ja auch nach der apple-Homepage kein Problem sein sollte).

Auf dem apple TV laufen die Videos auch wunderbar, wenn ich die Videos auf mein iPad (über "Fotos" und "Videos einbeziehen") übertragen will, bekomme ich die folgende Fehlermeldung:

"VideoXXXX" wurde nicht auf das iPad kopiert, da das Objekt auf diesem iPad nicht wiedergegeben werden kann.

Die Parameter des Videos sind folgendermaßen:

General
Complete name : D:\XXXXXXX
Format : MPEG-4
Format profile : Base Media / Version 2
Codec ID : mp42
File size : 43.2 MiB
Duration : 1mn 15s
Overall bit rate : 4 805 Kbps
Encoded date : UTC 2011-01-27 18:42:12
Tagged date : UTC 2011-01-27 18:42:17
Writing application : mp4creator 1.6.1d

Video
ID : 1
Format : AVC
Format/Info : Advanced Video Codec
Format profile : High@L4.0
Format settings, CABAC : No
Format settings, ReFrames : 1 frame
Codec ID : avc1
Codec ID/Info : Advanced Video Coding
Duration : 1mn 15s
Bit rate mode : Variable
Bit rate : 4 667 Kbps
Width : 1 280 pixels
Height : 720 pixels
Display aspect ratio : 16:9
Frame rate mode : Constant
Frame rate : 25.000 fps
Resolution : 24 bits
Colorimetry : 4:2:0
Scan type : Progressive
Bits/(Pixel*Frame) : 0.203
Stream size : 42.0 MiB (97%)
Encoded date : UTC 2011-01-27 18:42:12
Tagged date : UTC 2011-01-27 18:42:17

Audio
ID : 2
Format : AAC
Format/Info : Advanced Audio Codec
Format version : Version 4
Format profile : LC
Format settings, SBR : No
Codec ID : 40
Duration : 1mn 14s
Bit rate mode : Variable
Bit rate : 139 Kbps
Maximum bit rate : 154 Kbps
Channel(s) : 2 channels
Channel positions : L R
Sampling rate : 44.1 KHz
Resolution : 16 bits
Stream size : 1.23 MiB (3%)
Encoded date : UTC 2011-01-27 18:42:17
Tagged date : UTC 2011-01-27 18:42:17

Kann mich jemand von Euch aufklären, warum ich das Video auf dem apple TV sehen kann nicht aber auf dem iPad? Ich dachte, die Hardware wäre identisch und die wiedergebbaren Formate und Parameter sind doch laut apple-Homepage auch gleich.

Vielen Dank für Eure Antworten im Voraus. :sos:

Statistik: Verfasst von macsilver — Fr 28. Jan 2011, 20:15 — Antworten 0 — Zugriffe 2


Original post by macsilver and software by Elliott Back

Post to Twitter

Be the first to comment - What do you think?  Posted by - 28.01.2011 at 19:25

Categories: 187146   Tags: